» »

YouTube nativni video format

YouTube nativni video format

Ijus ::

Kater je YouTube nativni video format?
Ko hočem kak video downloadat me program ali pa spletna stran sprašuje v kateri video format shranit.

hojnikb ::

vp9
#https://bit.ly/3dFRi5L Treasure Cloud +10GB za oba
MediaBox: AMD R5 1600 AF, 16GB DDR4, 256GB SSD, B450M-DS3H, W10
PiNAS: RPI4 4GB, 20TB HDD

Ijus ::

kateri je potem audio kodek uporabljen v tem video kontejnerju?
za extrakcijo audio streama iz, potemtakem, vp9 formata.

Ijus ::

če ne zameriš, sem nekaj najdel.
s firefox sem prišel do nekega vtičnika. izgleda kar napredna zadeva. drugače uporabljam google chrome.
ponuja nek "CYS"- ne vem kaj je to točno - je to audio kodek?, za katerega pravijo oziroma pišejo, da saves AAC/M4A/OGG/OPUS audio tracks without transcoding; medtem ko za MP3 velja izguba napram izvoru (lossy transcoding).

vtičnik je complete youtube saver.

maj naj pol izberem? - če je to to.

Spajky ::

Ijus je izjavil:

...spletna stran sprašuje v kateri video format shranit.
Jest shranjujem v mp4 format zase. Ti pa lahko drugače. Stvar je velikost fajla in tvoj software PC predvajalnik oz.TV ali podobna naprava.
"Bluzim na forumu, torej sem !" (še živ ) ...

hojnikb ::

mp4 _ni_ format, ampak kontainer
#https://bit.ly/3dFRi5L Treasure Cloud +10GB za oba
MediaBox: AMD R5 1600 AF, 16GB DDR4, 256GB SSD, B450M-DS3H, W10
PiNAS: RPI4 4GB, 20TB HDD

mtosev ::

kaj je pol format npr za mp4?
Core i9 10900X, ASUS Prime X299 Edition 30, 32GB 3600mhz Gskill
ASUS ROG Strix RTX 2080 Super, Samsung 970 PRO, UP3017
moj oče darko 1960-2016, moj labradorec max 2002-2013

m0LN4r ::

h.265

Potegnil video direkt preko youtuba, podatki:
General
Complete name : C:\Users\GamingTV\Downloads\RORT%20-%2050%20%28per%29%20cent.mp4
Format : MPEG-4
Format profile : Base Media / Version 2
Codec ID : mp42 (isom/mp42)
File size : 259 MiB
Duration : 12 min
Overall bit rate mode : Variable
Overall bit rate : 2 947 kb/s
Encoded date : UTC 2017-03-28 17:59:41
Tagged date : UTC 2017-03-28 17:59:41
gsst : 0
gstd : 736628

Video
ID : 1
Format : AVC
Format/Info : Advanced Video Codec
Format profile : High@L3.1
Format settings, CABAC : Yes
Format settings, ReFrames : 1 frame
Codec ID : avc1
Codec ID/Info : Advanced Video Coding
Duration : 12 min
Bit rate : 2 752 kb/s
Maximum bit rate : 5 129 kb/s
Width : 1 280 pixels
Height : 720 pixels
Display aspect ratio : 16:9
Frame rate mode : Constant
Frame rate : 30.000 FPS
Color space : YUV
Chroma subsampling : 4:2:0
Bit depth : 8 bits
Scan type : Progressive
Bits/(Pixel*Frame) : 0.100
Stream size : 242 MiB (93%)
Tagged date : UTC 2017-03-28 17:59:51
Color range : Limited
Color primaries : BT.601 NTSC
Transfer characteristics : BT.709
Matrix coefficients : BT.601

Audio
ID : 2
Format : AAC
Format/Info : Advanced Audio Codec
Format profile : LC
Codec ID : 40
Duration : 12 min
Bit rate mode : Variable
Bit rate : 192 kb/s
Maximum bit rate : 203 kb/s
Channel(s) : 2 channels
Channel positions : Front: L R
Sampling rate : 44.1 kHz
Frame rate : 43.066 FPS (1024 spf)
Compression mode : Lossy
Stream size : 16.9 MiB (7%)
Title : IsoMedia File Produced by Google, 5-11-2011
Encoded date : UTC 2017-03-28 17:59:47
Tagged date : UTC 2017-03-28 17:59:51
https://www.youtube.com/user/m0LN4r

Zgodovina sprememb…

  • spremenil: m0LN4r ()

hojnikb ::

mtosev je izjavil:

kaj je pol format npr za mp4?

večinoma h.264
#https://bit.ly/3dFRi5L Treasure Cloud +10GB za oba
MediaBox: AMD R5 1600 AF, 16GB DDR4, 256GB SSD, B450M-DS3H, W10
PiNAS: RPI4 4GB, 20TB HDD

Mavrik ::

Ijus je izjavil:

Kater je YouTube nativni video format?
Ko hočem kak video downloadat me program ali pa spletna stran sprašuje v kateri video format shranit.


YouTube v resnici servira kar nekaj različnih datotek - po kvaliteti in po podpori formatov. Kolikor sem nazadnje gledal na določenih videih poservirajo audio in video ločen. Formati se tudi malo spreminjajo, ampak trenutno gre nekako takole:

* Če se da ti bodo poservirali VP9 z OPUS avdijem.
* Če ti browser ne podpira Opusa, dobiš VP9 z AAC
* Če ti browser ne podpira VP9 dobiš H.264 z AAC

VP9 boš verjetno dobil v WebM containerju, H.264 pa v MP4. Odvisno od brskalnika bo pa vse skupaj verjetno dostavjeno preko DASH-a ali HLSja.
The truth is rarely pure and never simple.

Ijus ::

dej mi povej/povejte ker format je boljši: .aac ali .m4a?

včeraj sem ugotovil na wikipediji da je .opus kodek mnogo boljši od .mp3. res se sliš razlika. očitna. in to taka da se lahko .mp3 skrije.
.opus fajli so mnogo manjši v bajtih. tudi neka čisto nova stvar.

potem sem najdel nek plug-in za firefox in lahko dol povlečem več oblik audio zapisa/formatov.
sedaj če prav razumem je .opus prava stvar. in po kvaliteti in velikosti in sodobnosti. pol pač to dol povlečem? - če mi ta plug-in to ponud za določen youtube stream. ker za vsak stream mi ne ponud .opus opcije.

kaj potem glede če ni .opus opcije s tem plug-inom za kak youtube stream (kot je Mavrik napisal da YouTube ne ponudi vedno .opus audia)? kaj dol povlečem? .aac ali .m4a? kaj je boljše?

gddr85 ::

m4a je audio container, aac kodek

Ijus ::

aha. oke doke.
thank you.

Ijus ::

dej mni zdje povejte wtf je to:

torej, s firefox in unim plug-inom sem dol potegnil .opus file za nek youtube stream.

potem pa:
1. če ga odprem s foobar2000 mi izpiše error oziroma ne predvaja fajla
2. če ga odprem z VLC ga normalno predvaja
3. VLC izpiše da gre za opus kodek
4. če file preimenujem v .mka foobar2000 normalno predvaja fajl
5. foobar2000 za ta file piše, da gre za .opus file
6. če v foobar2000 updejtam tage gre dokler hočem updejtat sliko - izpiše, da za ta format ni te opcije oziroma ni podprto
7. če zaženem TrID aplikacijo v CMD-ju izpiše 100% matroska brez kakih detaljev
// gledal na googlu za file identifierje kot online file identifierje - nič našel, kr neki//
8. če zaženem opus tool (opusinfo) mi izpiše da ne gre za .ogg fajl oziroma mi 1 minuto v CMD-ju izpisuje same neke gape/errorje

wtf? kva je zdej to?

9. oziroma tud probal opusdec.exe pa napiše da ne gre za opus file

Zgodovina sprememb…

  • spremenil: Ijus ()

Ijus ::

še ena cvetka:
10. če v foobar2000 ta .mka fajl prekonvertiram v .opus potem foobar2000 ta novi .opus file normalno dela. lahko taggam po milji volji.

kva je to?

Zgodovina sprememb…

  • spremenil: Ijus ()

Ijus ::

dobro. ni panike. mislim, da sem rešil stvar.
//sorry za tolk pisanja//
//my bad//
//EMŠO//

...

am. sem dol potegnil iz matroškine official strani toolse pa nek gui za extracting.
tako da sem dobil pravi .opus file.

zgleda, da gre za .webm kontejner, ki vsebuje .opus file. zato or something, mi foobar2000 ni hotel updejtat slike v tage.
najbrž je kak problem pri foobar2000-u.

oke doke.


Vredno ogleda ...

TemaSporočilaOglediZadnje sporočilo
TemaSporočilaOglediZadnje sporočilo
»

Kje dobiti kakšen 4k film (strani: 1 2 )

Oddelek: Zvok in slika
5923655 (20463) Anney
»

Video format, kateri je najboljši?

Oddelek: Zvok in slika
194435 (3999) m0LN4r
»

Občasno štekanje pri predvajanju preko HDMI

Oddelek: Zvok in slika
472242 (1198) sejmon
»

HD ali FULL HD KAMERA

Oddelek: Zvok in slika
284142 (3166) JOKER
»

wmv - video in zvok nista usklajena

Oddelek: Zvok in slika
6896 (841) #000000

Več podobnih tem